#TITLE:Girlfriend;
#SUBTITLE:SDO China lv15;
#ARTIST:Avril Lavigne;
#TITLETRANSLIT:;
#SUBTITLETRANSLIT:;
#ARTISTTRANSLIT:;
#CREDIT:;
#BANNER:a.PNG;
#BACKGROUND:c.jpg;
#LYRICSPATH:;
#CDTITLE:b.PNG;
#MUSIC:Girlfriend.ogg;
#OFFSET:-0.020;
#SAMPLESTART:100.000;
#SAMPLELENGTH:12.000;
#SELECTABLE:YES;
#BPMS:0.000=164.000;
#STOPS:;
#BGCHANGES:162.750=d.jpg=1.000=1=0=0,
196.000=c.JPG=1.000=1=0=1,
212.000=d.jpg=1.000=1=0=1,
227.000=c.JPG=1.000=1=0=1,
292.000=d.jpg=2.000=1=0=1,
324.000=c.JPG=1.000=1=0=1,
332.000=d.jpg=1.000=1=0=1,
340.000=c.JPG=1.000=1=0=1,
355.000=e.jpg=2.000=0=0=1,
355.250=c.JPG=2.000=0=0=1,
355.500=e.jpg=2.000=0=0=1,
355.750=c.JPG=2.000=0=0=1,
356.000=e.jpg=2.000=0=0=1,
356.250=c.JPG=2.000=0=0=1,
371.000=e.jpg=2.000=0=0=1,
371.250=c.JPG=2.000=0=0=1,
371.500=e.jpg=2.000=0=0=1,
371.750=c.JPG=2.000=0=0=1,
372.000=e.jpg=2.000=0=0=1,
372.250=d.jpg=2.000=0=0=1,
388.000=c.JPG=2.000=0=0=1,
99999=-nosongbg-=1.000=0=0=0 // don't automatically add -songbackground-
;
// cache tags:
#FIRSTBEAT:3.000;
#LASTBEAT:388.000;
#SONGFILENAME:Songs/SDO/Girlfriend/Girlfriend.sm;
#HASMUSIC:1;
#HASBANNER:1;
#MUSICLENGTH:144.719;
// end cache tags

//---------------dance-single - ----------------
#NOTES:
     dance-single:
     :
     Hard:
     15:
     1.000,1.000,1.000,0.000,1.000,1008.000,241.000,0.000,0.000,4.000:
0000
0000
0000
0100
,
0011
0000
0010
0100
0000
0100
0010
0000
,
1001
0000
0010
0100
0000
0100
0010
0000
,
0001
0000
0010
0100
0000
0100
0010
0000
,
1000
0000
0010
0100
0000
0100
0010
0000
,
0101
0000
0100
0010
0000
0010
0100
0000
,
0001
0000
0100
0010
0000
0010
0100
0000
,
1001
0000
0001
1100
0000
1100
0011
0000
,
1010
1000
0011
1000
0000
1000
0101
0000
,
1010
0000
0101
1000
0000
1000
0101
0000
,
0001
0000
0101
1000
0000
1000
0101
0000
,
1010
0000
0101
1000
0000
1000
0101
0000
,
1000
0000
0101
1000
0000
1000
0101
0000
,
0011
0000
1010
0001
0000
0001
1010
0000
,
1001
0000
1010
0001
0000
0001
1010
0000
,
0101
0000
1010
0101
0000
0101
1010
0000
,
0101
0101
1000
0101
0000
1100
0011
0000
,
1000
1000
0000
1000
1000
1000
0000
1000
,
1000
0000
1000
0000
0000
0000
1000
0000
1000
0000
1001
0000
0010
0001
0100
1000
,
0101
0101
1010
0101
0101
0101
1010
0101
,
0101
0101
1010
0101
0101
0101
1010
1001
,
1010
1010
0101
1010
1010
1010
0101
1010
,
1010
1010
0101
1010
1010
1010
0101
1001
,
0110
0110
0001
0110
0110
0110
0001
0110
,
0110
0000
0110
0000
0001
0000
0110
0000
0110
0000
0110
0000
0001
0000
1000
0100
,
0011
0101
1010
0101
0011
0101
1010
0101
,
0011
0101
1010
0101
0011
0101
1000
0101
,
0110
1010
0001
1010
0110
1010
0001
1010
,
0110
1010
0001
1010
0110
1010
0001
1010
,
1001
1010
0101
1010
1001
1010
0101
1010
,
1001
1010
0101
1010
1001
1010
0101
0110
,
0101
0110
1001
0110
0101
0110
1001
0110
,
0101
0000
0110
0000
1001
0000
0110
0000
0100
0001
1000
0010
0100
0001
1000
0010
,
0101
0000
0000
0000
0101
0000
0101
0000
1100
0000
0000
0000
0000
0000
0010
0010
,
1000
0000
0101
0101
1010
0000
0000
0100
,
1101
0000
0000
0000
0011
0000
0001
0000
1100
0000
0000
0000
0000
0000
0010
0010
,
1100
0000
1100
1000
0101
1000
0101
0000
,
0111
0000
0000
0000
0101
0000
0001
0000
1010
0000
0000
0000
0000
0000
0100
0100
,
0001
0000
0000
0000
0110
0000
0001
0000
1101
0000
0000
0000
0000
0000
0100
0100
,
0011
0000
0110
0100
1001
0000
1010
0000
,
0001
0000
0001
0000
0010
0000
0010
0000
0100
0000
0100
0001
1000
0010
0100
0001
,
1000
0010
0100
0001
1000
0100
0001
0010
1000
0001
0010
1000
0100
1000
0001
0010
,
1000
0100
1000
0010
0100
0001
0100
0010
0100
0001
1000
0100
0001
1000
0010
1000
,
0001
0010
1000
0010
0001
0100
0010
1000
0100
0001
0100
0010
1000
0001
0100
0010
,
1000
0001
0100
1000
0010
0100
0010
0001
1000
0010
0100
0001
0100
0010
0100
1000
,
0010
1000
0001
0100
0010
0001
0100
1000
0010
0100
1000
0010
0001
0010
0100
1000
,
0010
0001
0010
1000
0001
0100
0001
1000
0001
0100
0010
0001
0100
0010
1000
0010
,
0100
1000
0010
1000
0100
0001
1000
0010
0001
0100
0001
1000
0010
0100
0001
1000
,
0010
0100
0001
0010
1000
0001
1000
0100
0010
1000
0001
0100
0001
1000
0001
0100
,
0001
0100
0010
1000
0001
0010
1000
0100
0001
1000
0100
0001
0010
0001
1000
0100
,
0001
0010
0001
0100
0010
1000
0010
0100
0010
1000
0001
0010
1000
0001
0100
0001
,
1000
0100
0001
0100
1000
0010
0100
0001
0010
1000
0010
0100
0001
1000
0010
0100
,
0001
1000
0010
0001
0100
0010
0100
1000
0001
0100
0010
1000
0010
0100
0010
0001
,
0100
0001
1000
0010
0100
1000
0010
0001
0100
0010
0001
0100
1000
0100
0010
0001
,
0100
1000
0100
0001
1000
0010
1000
0001
1000
0010
0100
1000
0010
0100
0001
0100
,
0010
0001
0100
0001
0010
1000
0001
0100
1000
0010
1000
0001
0100
0010
1000
0001
,
0100
0010
1000
0100
0001
1000
0001
0010
0100
0001
1000
0010
1000
0001
1000
0100
,
0011
0000
0101
1010
0000
1000
0011
0000
,
0101
0000
0101
1010
0000
1000
0011
0000
,
1010
0000
0101
1010
0000
1010
0101
0000
,
1100
0000
0101
1010
0000
1010
0101
0000
,
1001
0000
0100
0010
0000
0100
0011
0000
,
1001
0000
1000
0101
0000
0100
0011
0000
,
1010
0000
0100
0010
0000
1000
0011
0000
,
1001
1000
0001
0110
0000
1000
0101
0000
,
1011
1000
0101
0001
1010
1000
0101
0010
,
1100
0001
0010
0100
1001
0000
0010
1000
,
0101
0001
1000
1000
0101
0001
1100
1000
,
0101
0010
0100
1000
0101
0001
1100
0010
,
1000
1000
0001
0001
1010
0100
1001
0010
,
1100
0001
0010
0100
1001
0100
1001
0010
,
1100
0010
1001
0100
0000
0101
1010
0000
,
0110
1100
0001
1010
0000
1010
0101
0010
,
1001
0010
0100
0001
1000
0100
0001
0010
1000
0001
0010
1000
0100
1000
0001
0010
,
1000
0100
1000
0010
0100
0001
0100
0010
0100
0001
1000
0100
0001
1000
0010
1000
,
0001
0010
1000
0010
0001
0100
0010
1000
0100
0001
0100
0010
1000
0001
0100
0010
,
1000
0001
0100
1000
0010
0100
0010
0001
1000
0010
0100
0001
0100
0010
0100
1000
,
0010
1000
0001
0100
0010
0001
0100
1000
0010
0100
1000
0010
0001
0010
0100
1000
,
0010
0001
0010
1000
0001
0100
0001
1000
0001
0100
0010
0001
0100
0010
1000
0010
,
0100
1000
0010
1000
0100
0001
1000
0010
0001
0100
0001
1000
0010
0100
0001
1000
,
0010
0100
0001
0010
1000
0001
1000
0100
0010
1000
0001
0100
0001
1000
0001
0100
,
1001
0100
0010
1000
0001
0010
1000
0100
0001
1000
0100
0001
0010
0001
1000
0100
,
0001
0010
0001
0100
0010
1000
0010
0100
0010
1000
0001
0010
1000
0001
0100
0001
,
1010
0100
0001
0100
1000
0010
0100
0001
0010
1000
0010
0100
0001
1000
0010
0100
,
0001
1000
0010
0001
0100
0010
0100
1000
0001
0100
0010
1000
0010
0100
0010
0001
,
1100
0001
1000
0010
0100
1000
0010
0001
0100
0010
0001
0100
1000
0100
0010
0001
,
0100
1000
0100
0001
1000
0010
1000
0001
1000
0010
0100
1000
0010
0100
0001
1000
,
0110
0001
0100
0001
0010
1000
0001
0100
1000
0010
1000
0001
0100
0010
1000
0001
,
0100
0010
1000
0100
0001
1000
0001
0010
0100
0001
1000
0010
1000
0001
1010
0101
,
1010
0100
0001
0100
0010
1000
0101
0010
1000
0001
0010
1000
0101
1000
0001
0010
,
1000
0100
1000
0001
0010
0001
1100
0010
1000
0001
0100
0010
1001
0100
0010
1000
,
0101
0010
1000
0010
0001
0100
0011
1000
0100
0001
0100
0010
1001
0010
0100
0010
,
1000
0001
0100
1000
0010
0100
1010
0001
1000
0010
0100
0001
1100
0010
0100
1000
,
0011
1000
0001
0100
0010
0001
1010
0100
0010
0100
1000
0010
1001
0010
0100
1000
,
0001
0100
0010
1000
0001
0100
0011
1000
0001
0100
0010
0001
1010
0100
1000
0010
,
0101
1000
0010
1000
0100
0010
1001
0010
0001
0100
0001
0100
1010
0100
0001
1000
,
0101
1000
0001
0010
1000
0001
1010
0100
0010
1000
0001
0100
1001
0010
0001
0100
,
1001
0000
0000
0000
;
